ZzTorrents.xyz

Скачать Воскресный вечер с Владимиром Соловьевым (2017.08.13) SATRip


Воскресный вечер с Владимиром Соловьевым (2017.08.13) SATRip
Телекомпания: Россия
Жанр: Телепередача

Ведущий: Владимир Соловьёв

Описание:
Дональд Трамп готов к новой войне, американский президент вспомнил про ещё одну помимо Северной Кореи точку применения силы, теперь повезло Венесуэле. Там нет демократии, страдают люди, которым Америка давно мечтает прийти на помощь. Хочет ли этого сам народ Венесуэлы и что с ним будет после, значения не имеет. Как США могут навести порядок в других странах, если у себя дома не могут справиться со всплеском ультраправых течений, во многом неотличимых от нацистов и "ку-клукс-клана". А что сказал бы Вашингтон, если бы Россия начала вторгаться на территории всех постсоветских республик, где страдают люди? Не боятся ли Штаты, что именно таким будет наш ответ на присутствие НАТО и американских военных баз или военной инфраструктуры на Украине или в Молдавии?

"Мы ставили задачу сделать программу для умного, неравнодушного зрителя, которая позволит обсуждать актуальные проблемы в разных форматах: от интервью "один на один" до "круглого стола". Надеемся, она будет такой же острой, как политическое ток-шоу "Поединок". Но если в "Поединке" сталкиваются две полярные точки зрения, то здесь мы намерены представить более широкий спектр мнений: ведь в обществе обсуждается множество тем, которые вызывают не только однозначные реакции", - сказал автор проекта Владимир Соловьев.

Релиз от: -=DeMoH=-
Продолжительность: ~ 02:40:59
Качество видео: SATRip
Субтитры: Отсутствуют

Видео: MPEG4, XviD, 720x400 (16:9), 25.000 fps, 1 799 Kbps (0.250 bit/pixel)
Аудио: AC-3, 48.0 KHz, 2 ch, 192 Kbps, CBR

Mediainfo:

Код: выделить все
 Общее
Полное имя                               : D:\[1]\Воскресный вечер с Владимиром Соловьевым\Воскресный вечер с Владимиром Соловьевым (2017.08.13).avi
Формат                                   : AVI
Формат/Информация                        : Audio Video Interleave
Профиль формата                          : OpenDML
Размер файла                             : 2,25 Гбайт
Продолжительность                        : 2 ч. 40 м.
Общий поток                              : 2003 Кбит/сек
Программа кодирования                    : VirtualDubModRus 1.5.10.1 (build 2439/release)
Библиотека кодирования                   : VirtualDubMod build 2439/release

Видео
Идентификатор                            : 0
Формат                                   : MPEG-4 Visual
Профиль формата                          : Advanced Simple@L5
Параметр BVOP формата                    : 2
Параметр QPel формата                    : Нет
Параметр GMC формата                     : Без точки перехода
Параметр матрицы формата                 : Default (H.263)
Идентификатор кодека                     : XVID
Идентификатор кодека/Подсказка           : XviD
Продолжительность                        : 2 ч. 40 м.
Битрейт                                  : 1799 Кбит/сек
Ширина                                   : 720 пикселей
Высота                                   : 400 пикселей
Соотношение сторон                       : 16:9
Частота кадров                           : 25,000 кадров/сек
Цветовое пространство                    : YUV
Субдискретизация насыщенности            : 4:2:0
Битовая глубина                          : 8 бит
Тип развёртки                            : Прогрессивная
Метод сжатия                             : С потерями
Бит/(Пиксели*Кадры)                      : 0.250
Размер потока                            : 2,02 Гбайт (90%)
Библиотека кодирования                   : XviD 1.2.1 (UTC 2008-12-04)

Аудио
Идентификатор                            : 1
Формат                                   : AC-3
Формат/Информация                        : Audio Coding 3
Расширение режима                        : CM (complete main)
Параметр Endianness формата              : Big
Идентификатор кодека                     : 2000
Продолжительность                        : 2 ч. 40 м.
Вид битрейта                             : Постоянный
Битрейт                                  : 192 Кбит/сек
Каналы                                   : 2 канала
Расположение каналов                     : Front: L R
Частота                                  : 48,0 КГц
Битовая глубина                          : 16 бит
Метод сжатия                             : С потерями
Размер потока                            : 221 Мбайт (10%)
Выравнивание                             : Разделение по промежуткам
Продолжительность промежутка             : 40  мс. (1,00 видеокадр)
Время предзагрузки промежутка            : 500  мс.
 
Скриншоты:




Детали торрента:
Название:Воскресный вечер с Владимиром Соловьевым (2017.08.13) SATRip
Дата добавления:13 Авг 2017 20:17:36
Размер:2,25 GB
Раздают:114
Качают:14
Форум:Общественно-политические ток-шоу
All rights reserved © 2017