ZzTorrents.xyz

Скачать Тень якудзы / Twilight of the Yakuza (2013) HDTV [H.264/1080i-LQ]


Тень якудзы / Twilight of the Yakuza (2013) HDTV [H.264/1080i]
Телекомпания: Япония / Seven Saints Productions
Жанр: Документальный, История

Участники: Daikaku Chôdôin, Shorai Horitoku, Jaime Morris, Yoichi Nakamura, Norio Tamura, Toyohiko Tanaka

Описание:
Документальный фильм о самой могущественной преступной организации в Японии – Якудза. Кто они – рак нации или необходимое зло? Почему правительство объявило им войну? И что будет, если Якудза исчезнут навсегда?


Продолжительность: 01:20:21
Качество видео: HDTV [1080i]
Перевод: Двухголосый закадровый, профессиональный
Субтитры: Русские

Видео: AVC/H.264, 1920х1080, ~4982 Kbps
Аудио #1: MP2, 2 ch, 48,0 kHz, 192 kbps | Русский DVO
Аудио #2: MP2, 2 ch, 48,0 kHz, 160 kbps | Jap (оригинал)

Mediainfo:


Общее
Идентификатор : 16 (0x10)
Полное имя : Twilight of the Yakuza_HD.ts
Формат : MPEG-TS
Размер файла : 3,15 Гбайт
Продолжительность : 1 ч. 20 м.
Режим общего битрейта : Переменный
Общий поток : 5615 Кбит/сек

Видео
Идентификатор : 3410 (0xD52)
Идентификатор меню : 1410 (0x582)
Формат : AVC
Формат/Информация : Advanced Video Codec
Профиль формата : High@L4.1
Параметр CABAC формата : Да
Параметр ReFrames формата : 4 кадра
Параметр GOP формата : M=4, N=32
Идентификатор кодека : 27
Продолжительность : 1 ч. 20 м.
Битрейт : 4982 Кбит/сек
Ширина : 1920 пикселей
Высота : 1080 пикселей
Соотношение сторон : 16:9
Частота кадров : 25,000 кадров/сек
Стандарт вещания : PAL
Цветовое пространство : YUV
Субдискретизация насыщенности : 4:2:0
Битовая глубина : 8 бит
Тип развёртки : Чересстрочная
Метод сохранения типа развёртки : Раздельные поля
Порядок развёртки : Верхнее поле первое
Бит/(Пиксели*Кадры) : 0.096
Размер потока : 2,80 Гбайт (89%)
Цветовой диапазон : Limited
Основные цвета : BT.709
Характеристики трансфера : BT.709
Коэффициенты матрицы : BT.709

Аудио #1
Идентификатор : 4410 (0x113A)
Идентификатор меню : 1410 (0x582)
Формат : MPEG Audio
Версия формата : Version 1
Профиль формата : Layer 2
Идентификатор кодека : 4
Продолжительность : 1 ч. 20 м.
Вид битрейта : Постоянный
Битрейт : 192 Кбит/сек
Каналы : 2 канала
Частота : 48,0 КГц
Метод сжатия : С потерями
Задержка видео : 30 мс.
Размер потока : 110 Мбайт (3%)
Язык : std
Язык, дополнительно : Clean effects

Аудио #2
Идентификатор : 4460 (0x116C)
Идентификатор меню : 1410 (0x582)
Формат : MPEG Audio
Версия формата : Version 1
Профиль формата : Layer 2
Идентификатор кодека : 4
Продолжительность : 1 ч. 20 м.
Вид битрейта : Постоянный
Битрейт : 160 Кбит/сек
Каналы : 2 канала
Частота : 48,0 КГц
Метод сжатия : С потерями
Задержка видео : 78 мс.
Размер потока : 92,0 Мбайт (3%)
Язык : std
Язык, дополнительно : Clean effects
Скриншоты:



Детали торрента:
Название:Тень якудзы / Twilight of the Yakuza (2013) HDTV [H.264/1080i-LQ]
Дата добавления:13 Авг 2017 19:50:29
Размер:3,04 GB
Раздают:1
Качают:23
Форум:Тележурналистика
All rights reserved © 2017