ZzTorrents.xyz

Скачать Moto GP. Сезон 2017. NeroGiardini Motorrad Grand Prix von Osterreich. Этап 11. Гонка (13.08.2017) WEB-DL [H.264/720p-LQ] [VO]


Moto GP. Сезон 2017. NeroGiardini Motorrad Grand Prix von Osterreich. Этап 11. Гонка (13.08.2017) WEB-DL [H.264/720p-LQ] [VO]
Телекомпания: BT Sport 2 HD
Жанр: Спорт

Описание:
Чемпионат мира по шоссейно-кольцевым мотогонкам Гран-при, также MotoGP (англ. FIM Road Racing World Championship Grand Prix) — главное престижное соревнование по шоссейно-кольцевым мотогонкам на гоночных мотоциклах. В настоящее время чемпионат разделен на три класса: MotoGP, Moto2 и Moto3. Все три класса используют специальные мотоциклы-прототипы, которые отсутствуют в свободной продаже и не разрешены к эксплуатации на дорогах общего пользования. Коммерческие права на чемпионат принадлежат международной компании Dorna Sports S.L.

Релиз от:

Продолжительность: 01:24:19
Качество видео: WEB-DL
Перевод: Одноголосый закадровый, любительский
Язык: Русский

Видео: AVC/H.264, 1280х720, ~4926 Kbps
Аудио: AAC, 2 ch, 192 Kbps

Mediainfo:


General
Complete name : E:\Записи телевизионных шоу\Разное\MotoGP. Сезон 2017. Этап 11 - NeroGiardini Motorrad Grand Prix von Osterreich. Гонка, 13.08.2017 [Русская озвучка, 545TV, A21 Network].mp4
Format : MPEG-4
Format profile : Base Media
Codec ID : isom (isom/iso2/avc1/mp41)
File size : 3.02 GiB
Duration : 1 h 24 min
Overall bit rate mode : Variable
Overall bit rate : 5 131 kb/s

Video
ID : 2
Format : AVC
Format/Info : Advanced Video Codec
Format profile : Main@L3.1
Format settings, CABAC : No
Format settings, ReFrames : 4 frames
Format settings, GOP : M=3, N=15
Codec ID : avc1
Codec ID/Info : Advanced Video Coding
Duration : 1 h 24 min
Bit rate : 4 926 kb/s
Width : 1 280 pixels
Height : 720 pixels
Display aspect ratio : 16:9
Frame rate mode : Constant
Frame rate : 30.000 FPS
Color space : YUV
Chroma subsampling : 4:2:0
Bit depth : 8 bits
Scan type : Progressive
Bits/(Pixel*Frame) : 0.178
Stream size : 2.90 GiB (96%)
Writing library : x264 core 142 r2479 dd79a61
Encoding settings : cabac=0 / ref=1 / deblock=0:0:0 / analyse=0:0 / me=dia / subme=0 / psy=1 / psy_rd=1.00:0.00 / mixed_ref=0 / me_range=16 / chroma_me=1 / trellis=0 / 8x8dct=0 / cqm=0 / deadzone=21,11 / fast_pskip=1 / chroma_qp_offset=0 / threads=12 / lookahead_threads=2 / sliced_threads=0 / nr=0 / decimate=1 / interlaced=0 / bluray_compat=0 / constrained_intra=0 / bframes=2 / b_pyramid=2 / b_adapt=0 / b_bias=0 / direct=1 / weightb=0 / open_gop=0 / weightp=0 / keyint=15 / keyint_min=8 / scenecut=0 / intra_refresh=0 / rc=crf / mbtree=0 / crf=23.0 / qcomp=0.60 / qpmin=0 / qpmax=69 / qpstep=4 / ip_ratio=1.40 / pb_ratio=1.30 / aq=0

Audio
ID : 1
Format : AAC
Format/Info : Advanced Audio Codec
Format profile : LC
Codec ID : 40
Duration : 1 h 24 min
Duration_FirstFrame : 67 ms
Bit rate mode : Variable
Bit rate : 192 kb/s
Channel(s) : 2 channels
Channel positions : Front: L R
Sampling rate : 44.1 kHz
Frame rate : 43.066 FPS (1024 spf)
Compression mode : Lossy
Stream size : 117 MiB (4%)
Default : Yes
Alternate group : 1
Скриншоты:



Детали торрента:
Название:Moto GP. Сезон 2017. NeroGiardini Motorrad Grand Prix von Osterreich. Этап 11. Гонка (13.08.2017) WEB-DL [H.264/720p-LQ] [VO]
Дата добавления:13 Авг 2017 16:40:52
Размер:3,02 GB
Раздают:6
Качают:1
Форум:Авто, Мото
All rights reserved © 2017