ZzTorrents.xyz

Скачать Параллакс / Parallax (2004) TVRip (сезон 1, серии 1-2 из 25) GoASound (обновляемая)


Параллакс / Parallax (2004) TVRip (1-2)
Производство: Австралия / Nine Network
Жанр: фантастика, фэнтези, приключения, семейный

Режиссер: Пол Баррон
Актеры: Джошуа Маршал-Кларк, Гиллиан Алекси, Керолайн Бразье, Фейт Клейтон, Перис Ебботт и др.

Описание:
14-летний Бен живет в безмятежном (для взрослых) и ужасно скучном (для подростков) провинциальном городке Варнап в Западной Австралии.
Жизнь Бена кардинально меняется, когда его обвиняют в краже, которую он не совершал.
В погоне за настоящим вором, Бен узнаёт, что Варнап является порталом в параллельную вселенную, под названием Параллакс.



Релиз от: RoxMarty

Продолжительность: ~00:23:00 серия
Качество видео: TVRip
Перевод: Двуголосый закадровый (GoASound), одноголосый закадровый, любительский (RoxMarty)
Субтитры: русские, английские

Видео: Xvid, 640x352, ~1400 kbps
Аудио 1 RUS: AC3, 2 ch, 256 kbps - двухголосый закадровый, любительский
Аудио 2 RUS: AC3, 2 ch, 256 kbps - одноголосый закадровый, любительский
Аудио 3 ENG: MP3, 2 ch, 126 kbps - английский

Mediainfo:


Общее
Уникальный идентификатор : 228244185104733497605830135277169943498 (0xABB63B27920816F282189A8F303023CA)
Полное имя : ...Parallax\1x01 One Big Happy Family [GoASound]+[RoxMarty]+[ENG+rus].mkv
Формат : Matroska
Версия формата : Version 4 / Version 2
Размер файла : 330 Мбайт
Продолжительность : 22 м.
Режим общего битрейта : Переменный
Общий поток : 2066 Кбит/сек
Дата кодирования : UTC 2017-08-10 20:07:42
Программа кодирования : mkvmerge v14.0.0 ('Flow') 64bit
Библиотека кодирования : libebml v1.3.4 + libmatroska v1.4.5
DURATION : 00:22:17.984000000
NUMBER_OF_FRAMES : 41812
NUMBER_OF_BYTES : 42815488
_STATISTICS_WRITING_APP : mkvmerge v14.0.0 ('Flow') 64bit
_STATISTICS_WRITING_DATE_UTC : 2017-08-10 20:07:42
_STATISTICS_TAGS : BPS DURATION NUMBER_OF_FRAMES NUMBER_OF_BYTES

Видео
Идентификатор : 1
Формат : MPEG-4 Visual
Профиль формата : Advanced Simple@L5
Параметр BVOP формата : Да
Параметр QPel формата : Нет
Параметр GMC формата : Без точки перехода
Параметр матрицы формата : Default (H.263)
Идентификатор кодека : V_MS/VFW/FOURCC / XVID
Идентификатор кодека/Подсказка : XviD
Продолжительность : 22 м.
Битрейт : 1387 Кбит/сек
Ширина : 640 пикс.
Высота : 352 пикс.
Соотношение сторон : 16:9
Режим частоты кадров : Постоянный
Частота кадров : 25,000 кадр/сек
Цветовое пространство : YUV
Подвыборка цветности : 4:2:0
Битовая глубина : 8 бит
Тип развёртки : Прогрессивная
Метод сжатия : С потерями
Бит/(Пиксели*Кадры) : 0.246
Размер потока : 221 Мбайт (67%)
Библиотека кодирования : XviD 1.2.1 (UTC 2008-12-04)
Default : Да
Forced : Нет

Аудио #1
Идентификатор : 2
Формат : AC-3
Формат/Информация : Audio Coding 3
Расширение режима : CM (complete main)
Параметр Endianness формата : Big
Идентификатор кодека : A_AC3
Продолжительность : 22 м.
Вид битрейта : Постоянный
Битрейт : 256 Кбит/сек
Каналы : 2 канала
Расположение каналов : Front: L R
Частота : 48,0 КГц
Битовая глубина : 16 бит
Метод сжатия : С потерями
Размер потока : 40,8 Мбайт (12%)
Заголовок : GoASound
Язык : Russian
Default : Да
Forced : Нет

Аудио #2
Идентификатор : 3
Формат : AC-3
Формат/Информация : Audio Coding 3
Расширение режима : CM (complete main)
Параметр Endianness формата : Big
Идентификатор кодека : A_AC3
Продолжительность : 22 м.
Вид битрейта : Постоянный
Битрейт : 256 Кбит/сек
Каналы : 2 канала
Расположение каналов : Front: L R
Частота : 48,0 КГц
Битовая глубина : 16 бит
Метод сжатия : С потерями
Размер потока : 40,8 Мбайт (12%)
Заголовок : Шевчук
Язык : Russian
Default : Нет
Forced : Нет

Аудио #3
Идентификатор : 4
Формат : MPEG Audio
Версия формата : Version 1
Профиль формата : Layer 3
Режим : Joint stereo
Расширение режима : MS Stereo
Идентификатор кодека : A_MPEG/L3
Идентификатор кодека/Подсказка : MP3
Продолжительность : 22 м.
Вид битрейта : Переменный
Битрейт : 126 Кбит/сек
Минимальный битрейт : 32,0 Кбит/сек
Каналы : 2 канала
Частота : 48,0 КГц
Метод сжатия : С потерями
Размер потока : 20,0 Мбайт (6%)
Заголовок : English
Библиотека кодирования : LAME3.98r
Настройки программы : -m j -V 5 -q 2 -lowpass 16.5 --vbr-new -b 32
Язык : English
Default : Нет
Forced : Нет

Текст #1
Идентификатор : 5
Формат : UTF-8
Идентификатор кодека : S_TEXT/UTF8
Идентификатор кодека/Информация: UTF-8 Plain Text
Заголовок : Russian [DimDimCh]
Язык : Russian
Default : Да
Forced : Нет

Текст #2
Идентификатор : 6
Формат : UTF-8
Идентификатор кодека : S_TEXT/UTF8
Идентификатор кодека/Информация: UTF-8 Plain Text
Заголовок : English [DimDimCh]
Язык : English
Default : Нет
Forced : Нет

Внимание! Раздача ведётся путём добавления новых серий

Внимание! Раздача ведётся путём добавления новых серий; при каждом добавлении создаётся новый торрент.
Чтобы начать докачку новой серии, пользователям необходимо сделать следующее:
1. Остановить скачивание;
2. Удалить старый торрент у себя из клиента (старые серии удалять не надо);
3. Скачать новый торрент и запустить его у себя в клиенте вместо старого, при этом указать клиенту путь в старую папку куда и должно происходить скачивание новых серий. Ваш клиент при этом должен произвести хеширование (проверку) старой папки и будет докачивать только те серии, которых у вас ещё нет. Старые серии при этом не удаляются, а продолжают раздаваться! Eсли вы уже удалили старые серии, то предотвратить повторную закачку старых серий можно, отжав галочку в соответствующих местах при запуске нового торрента.
Скриншоты:


Все одноименные релизы в Клубе
Детали торрента:
Название:Параллакс / Parallax (2004) TVRip (сезон 1, серии 1-2 из 25) GoASound (обновляемая)
Дата добавления:13 Авг 2017 18:56:56
Размер:621 MB
Раздают:8
Качают:0
Форум:Зарубежные сериалы
All rights reserved © 2017